返回列表 发帖

[1080P] 角头2:王者再起 Gatao.2.Rise.of.the.King.2018.CHINESE.1080p.BluRay.x264.DTS-MT



◎译  名 角头2:王者再起
◎片  名 GATAO 2-The New Leader Risin/Gatao 2: The New King
◎年  代 2018
◎国  家 中国台湾
◎类  别 犯罪
◎语  言 普通话/粤语
◎字  幕 英文
◎IMDb评分  6.2/10 from 38 users
◎IMDB链接 https://www.imdb.com/title/tt8324576/
◎文件格式 x264 + DTS
◎视频尺寸 1920x720
◎文件大小 7.77  GiB
◎片  长 2 h 6 min
◎导  演 颜正国 Ching-kuo Yan
◎主  演 王识贤 Jason Wang
      高捷 Jack Kao
      郑人硕 Rexen Cheng
      邹兆龙 Collin Chou
      唐振刚 Jian-Kong Tong
      黄尚禾 Shang-Ho Huang
      张再兴 Tsai-Hsing Chang
      吴震亚 Jen-Ya Wu
      黄腾浩 Tender Huang
      狄莺 Ying Di
      曾珮瑜 Peggy Tseng
      李依瑾 Jean Lee
      许维恩 Sharon Hsu


◎简  介

  故事描述仁哥(王识贤 饰演)面对曾经的好兄弟,如今却“走味”变成‘最换帖的敌人’的刘健(邹兆龙 饰演)重现江湖,不断挑起纷争与冲突,破坏仁哥的忍耐与努力维持的和平。看着刘健的事业版图逐渐扩大,身边的兄弟为了情义有所牺牲,仁哥终究按耐不住释放出心中的猛兽,与亦敌亦友的刘健正式开战,为江湖掀起腥风血雨的厮杀。

幕后制作

  角头,一角之头,即一方之霸。一开始是地方人士调解邻里纠纷,保卫地方不受外人侵侮,挺身而出,因渐受众人尊重,终成邻里间之意见领袖,以人情、邻里道义、忠诚为出发,称之角头。因为地方上人才良莠不齐,某些占地为王、为恶,亦称“角头”。但延伸至今,角头一词渐被污名化,沦为地下社会一隅之代名词。
Video
ID : 1
Format : AVC
Format/Info : Advanced Video Codec
Format profile : High@L4.1
Format settings : CABAC / 6 Ref Frames
Format settings, CABAC : Yes
Format settings, ReFrames : 6 frames
Codec ID : V_MPEG4/ISO/AVC
Duration : 2 h 6 min
Bit rate : 7 301 kb/s
Width : 1 920 pixels
Height : 720 pixels
Display aspect ratio : 2.667
Frame rate mode : Constant
Frame rate : 24.000 FPS
Color space : YUV
Chroma subsampling : 4:2:0
Bit depth : 8 bits
Scan type : Progressive
Bits/(Pixel*Frame) : 0.220
Stream size : 6.44 GiB (65%)
Title : Gatao.2.Rise.of.the.King.2018.CHINESE.1080p.BluRay.x264.DTS-HD.MA.5.1-MT
Writing library : x264 core 155 r2893 b00bcaf
Encoding settings : cabac=1 / ref=6 / deblock=1:-3:-3 / analyse=0x3:0x113 / me=umh / subme=10 / psy=1 / psy_rd=1.00:0.05 / mixed_ref=1 / me_range=48 / chroma_me=1 / trellis=2 / 8x8dct=1 / cqm=0 / deadzone=21,11 / fast_pskip=0 / chroma_qp_offset=-2 / threads=12 / lookahead_threads=2 / sliced_threads=0 / nr=0 / decimate=1 / interlaced=0 / bluray_compat=0 / constrained_intra=0 / bframes=8 / b_pyramid=2 / b_adapt=2 / b_bias=0 / direct=3 / weightb=1 / open_gop=0 / weightp=2 / keyint=250 / keyint_min=24 / scenecut=40 / intra_refresh=0 / rc_lookahead=40 / rc=crf / mbtree=0 / crf=18.0 / qcomp=0.60 / qpmin=0 / qpmax=69 / qpstep=4 / vbv_maxrate=50000 / vbv_bufsize=45000 / crf_max=0.0 / nal_hrd=none / filler=0 / ip_ratio=1.40 / pb_ratio=1.30 / aq=3:1.00
Default : Yes
Forced : No
Color range : Limited
Matrix coefficients : BT.709

Audio #1
ID : 2
Format : DTS
Format/Info : Digital Theater Systems
Format profile : MA / Core
Codec ID : A_DTS
Duration : 2 h 6 min
Bit rate mode : Variable / Constant
Bit rate : 1 920 kb/s / 1 509 kb/s
Channel(s) : 6 channels
Channel positions : Front: L C R, Side: L R, LFE
Sampling rate : 48.0 kHz
Frame rate : 93.750 FPS (512 SPF)
Bit depth : 16 bits
Compression mode : Lossless / Lossy
Stream size : 1.72 GiB (17%)
Title : Gatao.2.Rise.of.the.King.2018.CHINESE.1080p.BluRay.x264.DTS-HD.MA.5.1-MT
Language : Chinese
Default : Yes
Forced : No

Audio #2
ID : 3
Format : DTS
Format/Info : Digital Theater Systems
Codec ID : A_DTS
Duration : 2 h 6 min
Bit rate mode : Constant
Bit rate : 1 509 kb/s
Channel(s) : 6 channels
Channel positions : Front: L C R, Side: L R, LFE
Sampling rate : 48.0 kHz
Frame rate : 93.750 FPS (512 SPF)
Bit depth : 16 bits
Compression mode : Lossy
Stream size : 1.33 GiB (13%)
Title : Gatao.2.Rise.of.the.King.2018.CHINESE.1080p.BluRay.x264.DTS-HD.MA.5.1-MT
Language : Chinese
Default : No
Forced : No

Audio #3
ID : 4
Format : AC-3
Format/Info : Audio Coding 3
Codec ID : A_AC3
Duration : 2 h 6 min
Bit rate mode : Constant
Bit rate : 448 kb/s
Channel(s) : 6 channels
Channel positions : Front: L C R, Side: L R, LFE
Sampling rate : 48.0 kHz
Frame rate : 31.250 FPS (1536 SPF)
Bit depth : 16 bits
Compression mode : Lossy
Stream size : 405 MiB (4%)
Title : Gatao.2.Rise.of.the.King.2018.CHINESE.1080p.BluRay.x264.DTS-HD.MA.5.1-MT
Language : Chinese
Service kind : Complete Main
Default : No
Forced : No

Text #1
ID : 5
Format : PGS
Muxing mode : zlib
Codec ID : S_HDMV/PGS
Codec ID/Info : Picture based subtitle format used on BDs/HD-DVDs
Duration : 1 h 57 min
Bit rate : 36.9 kb/s
Count of elements : 2083
Stream size : 30.9 MiB (0%)
Title : English-PGS
Language : English
Default : Yes
Forced : Yes

Text #2
ID : 6
Format : PGS
Muxing mode : zlib
Codec ID : S_HDMV/PGS
Codec ID/Info : Picture based subtitle format used on BDs/HD-DVDs
Duration : 1 h 57 min
Bit rate : 29.5 kb/s
Count of elements : 2088
Stream size : 24.8 MiB (0%)
Title : Chinese-PGS
Language : Chinese
Default : No
Forced : No

Menu
00:00:00.000 : en:Chapter 01
00:12:52.833 : en:Chapter 02
00:24:53.750 : en:Chapter 03
00:35:29.250 : en:Chapter 04
00:49:07.458 : en:Chapter 05
01:00:03.541 : en:Chapter 06
01:12:20.375 : en:Chapter 07
01:24:03.708 : en:Chapter 08
01:36:14.208 : en:Chapter 09
01:50:32.958 : en:Chapter 10





分享到: 新浪微博新浪微博 QQ空间QQ空间 腾讯微博腾讯微博 腾讯朋友腾讯朋友

感谢版主分享
花落滿懷  暗香盈袖  淡淡歡喜淡淡愁

TOP

多谢超版分享

TOP

感谢版主分享

TOP

返回列表