返回列表 发帖

[720P] 羊之树/羊之木The.Scythian.Lamb.2017.JAPANESE.720p.BluRay.x264-WiKi




◎片  名 羊之树/羊之木
◎片  名 The Scythian Lamb/羊の木
◎年  代 2011
◎国  家 日本
◎类  别 惊悚
◎语  言 日语
◎字  幕 简体中文/繁体中文
◎IMDb评分 6.4/10 from 114 users
◎IMDB链接 https://www.imdb.com/title/tt6087562/
◎片  长 2 h 6 min
◎导  演 吉田大八 Daihachi Yoshida
◎主  演 锦户亮 Ryo Nishikido
                  木村文乃 Fumino Kimura
                  北村一辉 Kazuki Kitamura
                  优香 Yuka
                  松田龙平 Ryûhei Matsuda
                  市川实日子 Mikako Ichikawa
                  

            

◎简  介

  影片讲述了ZF试行某项机密企划:一个专门接收犯下凶杀罪的“凶手都市”。饰演公务员的月木一(锦户亮饰),将要面对重新开始人生的六位前杀人犯。
Video
ID : 1
Format : AVC
Format/Info : Advanced Video Codec
Format profile : High@L4.1
Format settings : CABAC / 9 Ref Frames
Format settings, CABAC : Yes
Format settings, ReFrames : 9 frames
Codec ID : V_MPEG4/ISO/AVC
Duration : 2 h 6 min
Bit rate : 4 576 kb/s
Width : 1 280 pixels
Height : 692 pixels
Display aspect ratio : 1.85:1
Frame rate mode : Constant
Frame rate : 23.976 (24000/1001) FPS
Color space : YUV
Chroma subsampling : 4:2:0
Bit depth : 8 bits
Scan type : Progressive
Bits/(Pixel*Frame) : 0.215
Stream size : 4.03 GiB (88%)
Writing library : x264 core 129 r2245+704+36 8e61944 tMod+MixAQ [8-bit@4:2:0 X86_64]
Encoding settings : cabac=1 / ref=9 / deblock=1:-3:-3 / analyse=0x3:0x133 / me=umh / subme=11 / psy=1 / fade_compensate=0.00 / psy_rd=1.05:0.10 / mixed_ref=1 / me_range=32 / chroma_me=1 / trellis=2 / 8x8dct=1 / cqm=0 / deadzone=21,11 / fast_pskip=0 / chroma_qp_offset=-3 / threads=18 / lookahead_threads=3 / sliced_threads=0 / nr=0 / decimate=0 / interlaced=0 / bluray_compat=0 / constrained_intra=0 / fgo=0 / bframes=10 / b_pyramid=2 / b_adapt=2 / b_bias=0 / direct=3 / weightb=1 / open_gop=0 / weightp=2 / keyint=250 / keyint_min=23 / scenecut=40 / intra_refresh=0 / rc=2pass / mbtree=0 / bitrate=4576 / ratetol=1.0 / qcomp=0.70 / qpmin=0 / qpmax=69 / qpstep=4 / cplxblur=20.0 / qblur=0.5 / ip_ratio=1.40 / pb_ratio=1.30 / aq=1 / aq-strength=0.80 / aq-sensitivity=10.00 / aq-ifactor=1.00 / aq-pfactor=1.00 / aq-bfactor=1.00 / aq2=0
Language : Japanese
Default : Yes
Forced : No

Audio
ID : 2
Format : AC-3
Format/Info : Audio Coding 3
Codec ID : A_AC3
Duration : 2 h 6 min
Bit rate mode : Constant
Bit rate : 640 kb/s
Channel(s) : 6 channels
Channel positions : Front: L C R, Side: L R, LFE
Sampling rate : 48.0 kHz
Frame rate : 31.250 FPS (1536 SPF)
Bit depth : 16 bits
Compression mode : Lossy
Stream size : 577 MiB (12%)
Language : Japanese
Service kind : Complete Main
Default : Yes
Forced : No

Text #1
ID : 3
Format : UTF-8
Codec ID : S_TEXT/UTF8
Codec ID/Info : UTF-8 Plain Text
Duration : 2 h 0 min
Bit rate : 22 b/s
Count of elements : 952
Stream size : 20.3 KiB (0%)
Title : Simplified
Language : Chinese
Default : Yes
Forced : No

Text #2
ID : 4
Format : UTF-8
Codec ID : S_TEXT/UTF8
Codec ID/Info : UTF-8 Plain Text
Duration : 2 h 0 min
Bit rate : 22 b/s
Count of elements : 952
Stream size : 20.3 KiB (0%)
Title : Traditional
Language : Chinese
Default : No
Forced : No

Menu
00:00:00.000 : en:00:00:00.000
00:10:07.398 : en:00:10:07.398
00:20:38.237 : en:00:20:38.237
00:33:21.332 : en:00:33:21.332
00:44:30.834 : en:00:44:30.834
00:50:14.803 : en:00:50:14.803
00:57:19.894 : en:00:57:19.894
01:04:54.265 : en:01:04:54.265
01:09:26.162 : en:01:09:26.162
01:22:55.428 : en:01:22:55.428
01:31:43.998 : en:01:31:43.998
01:36:32.995 : en:01:36:32.995
01:42:05.035 : en:01:42:05.035
01:47:49.546 : en:01:47:49.546
01:58:01.240 : en:01:58:01.240
02:01:31.284 : en:02:01:31.284





The.Scythian.Lamb.2017.JAPANESE.720p.BluRay.x264-WiKi.torrent (92.4 KB)

分享到: 新浪微博新浪微博 QQ空间QQ空间 腾讯微博腾讯微博 腾讯朋友腾讯朋友

多谢超版分享

TOP

多谢超版分享

TOP

返回列表