返回列表 发帖

[1080P] 巨齿鲨/极悍巨鲨(港) The.Meg.2018.1080p.KORSUB.HDRip.x264.AAC2.0-STUTTERSHIT






◎译  名 
巨齿鲨/极悍巨鲨(港)
◎片  名 The Meg
◎年  代 2018
◎国  家 中国/美国
◎类  别 动作/科幻/惊悚
◎语  言 英语
◎IMDb评分 6.1/10 from 37639 users
◎IMDB链接 https://www.imdb.com/title/tt4779682/
◎片  长 1 h 49 min
◎导  演 乔·德特杜巴 Jon Turteltaub
◎主  演 杰森·斯坦森 Jason Statham
      李冰冰 Bingbing Li
      雷恩·威尔森 Rainn Wilson
      鲁比·罗丝 Ruby Rose
      赵文瑄 Winston Chao
      佩吉·肯尼迪 Page Kennedy
      杰西卡·麦克娜美 Jessica McNamee
      奥拉维尔·达里·奥拉夫松 ólafur Darri ólafsson
      罗伯特·泰勒 Robert Taylor
      蔡书雅 Sophia Cai
      丘增 Masi Oka
      克利夫·柯蒂斯 Cliff Curtis
      安佑森 Yoson An
      罗伯·基帕-威廉姆斯 Rob Kipa-Williams
      维他亚·潘斯林加姆 Vithaya Pansringarm
      安得烈·格兰杰 Andrew Grainger
      蒂姆·王 Tim Wong
      史蒂文·A·戴维斯 Steven A. Davis
      托万达·马尼莫 Tawanda Manyimo
      买红妹 Hongmei Mai

◎简  介

  一项由中国主导的国际科研项目,正在马里亚纳海沟深处进行时,遭遇未知生物攻击,科研人员被困海底。前美国海军陆战队深海潜水专家乔纳斯·泰勒受命前往营救,再度遭遇数年前曾经在深海给自己留下终身难以磨灭记忆的史前生物巨齿鲨。乔纳斯联手科研项目中的中国女科学家张苏茵成功营救了被困人员,但营救行动却意外造成了巨齿鲨逃离深海。当史前巨兽重返浅海,人类将为自己对大自然的贪婪付出惨重的代价......

Video
ID : 1
Format : AVC
Format/Info : Advanced Video Codec
Format profile : High@L4.1
Format settings : CABAC / 4 Ref Frames
Format settings, CABAC : Yes
Format settings, ReFrames : 4 frames
Codec ID : avc1
Codec ID/Info : Advanced Video Coding
Duration : 1 h 49 min
Bit rate : 4 500 kb/s
Width : 1 920 pixels
Height : 804 pixels
Display aspect ratio : 2.40:1
Frame rate mode : Constant
Frame rate : 24.000 FPS
Color space : YUV
Chroma subsampling : 4:2:0
Bit depth : 8 bits
Scan type : Progressive
Bits/(Pixel*Frame) : 0.121
Stream size : 3.41 GiB (94%)
Title : The.Meg.2018.1080p.KORSUB.HDRip.x264.AAC2.0-STUTTERSHIT
Writing library : x264 core 148 r2795M aaa9aa8
Encoding settings : cabac=1 / ref=4 / deblock=1:0:0 / analyse=0x3:0x113 / me=umh / subme=9 / psy=1 / psy_rd=1.00:0.00 / mixed_ref=1 / me_range=16 / chroma_me=1 / trellis=2 / 8x8dct=1 / cqm=0 / deadzone=21,11 / fast_pskip=1 / chroma_qp_offset=-2 / threads=40 / lookahead_threads=3 / sliced_threads=0 / nr=0 / decimate=1 / interlaced=0 / bluray_compat=0 / constrained_intra=0 / bframes=3 / b_pyramid=2 / b_adapt=2 / b_bias=0 / direct=3 / weightb=1 / open_gop=0 / weightp=2 / keyint=250 / keyint_min=24 / scenecut=40 / intra_refresh=0 / rc_lookahead=50 / rc=abr / mbtree=1 / bitrate=4500 / ratetol=1.0 / qcomp=0.60 / qpmin=0 / qpmax=69 / qpstep=4 / ip_ratio=1.40 / aq=1:1.00

Audio
ID : 2
Format : AAC
Format/Info : Advanced Audio Codec
Format profile : LC
Codec ID : mp4a-40-2
Duration : 1 h 49 min
Bit rate mode : Constant
Bit rate : 256 kb/s
Channel(s) : 2 channels
Channel positions : Front: L R
Sampling rate : 44.1 kHz
Frame rate : 43.066 FPS (1024 SPF)
Compression mode : Lossy
Stream size : 200 MiB (5%)
Title : The.Meg.2018.1080p.KORSUB.HDRip.x264.AAC2.0-STUTTERSHIT
Language : English
Default : Yes
Alternate group : 1






The.Meg.2018.1080p.KORSUB.HDRip.x264.AAC2.0-STUTTERSHIT.torrent (72.8 KB)

分享到: 新浪微博新浪微博 QQ空间QQ空间 腾讯微博腾讯微博 腾讯朋友腾讯朋友

多谢超版分享

TOP

多谢超版分享

TOP

感谢版主分享
花落滿懷  暗香盈袖  淡淡歡喜淡淡愁

TOP

感谢分享,谢谢!
有鸟真好!

TOP

感谢版主分享

TOP

返回列表