返回列表 发帖

[1080P] 人类清除计划4/人类清除计划前传/杀戮元年(台)/国定杀戮日:屠亡前传(港)The.First.Purge.2018.1080p.BluRay.x264.DTS-X.7.1-FGT



◎译  名 人类清除计划4/人类清除计划前传/杀戮元年(台)/国定杀戮日:屠亡前传(港)
◎片  名 The Purge: The Island/The Purge: The Island/The Purge 4
◎年  代 2018
◎国  家 美国
◎类  别 动作/恐怖/科幻
◎语  言 英语
◎IMDb评分 5.3/10 from 13347 users
◎IMDB链接 https://www.imdb.com/title/tt6133466/
◎片  长 1 h 37 min
◎导  演 杰拉德·麦克穆雷
◎主  演 伊兰·诺尔
      莱克斯·斯科特·戴维斯
      乔瓦恩·韦德
      马加
      帕奇·德拉奇
      玛丽莎·托梅
      劳伦·维勒斯
      克丽丝滕·索利斯
      莫·麦克雷
      史蒂夫·哈里斯
      莱克斯·斯科特·戴维斯
      约翰·麦克金蒂
       米切尔·爱德华兹
      伊恩·布莱克曼
      梅罗妮·迪亚兹
      迪德尔·古德温
      丽维·陈
      阿兰·皮特鲁塞泽维斯基
      洛根·克劳福德




◎简  介

  第四部作为该系列首部前传,讲述第一次人类清除计划之前的事情。为了把犯罪率降为1%,美国新开国元勋(NFFA)在一个与世隔绝的社区,进行偏激的社会学实验,但随着施暴者和受害者对立加剧,原本实验性的活动将蔓延整个国家。
Video
ID : 1
Format : AVC
Format/Info : Advanced Video Codec
Format profile : High@L4.1
Format settings : CABAC / 5 Ref Frames
Format settings, CABAC : Yes
Format settings, ReFrames : 5 frames
Codec ID : V_MPEG4/ISO/AVC
Duration : 1 h 37 min
Bit rate : 9 734 kb/s
Width : 1 920 pixels
Height : 808 pixels
Display aspect ratio : 2.40:1
Frame rate mode : Constant
Frame rate : 23.976 (24000/1001) FPS
Color space : YUV
Chroma subsampling : 4:2:0
Bit depth : 8 bits
Scan type : Progressive
Bits/(Pixel*Frame) : 0.262
Stream size : 6.62 GiB (59%)
Title : The.First.Purge.2018.1080p.BluRay.x264.DTS-X.7.1-FGT
Writing library : x264 core 157 r2932 303c484
Encoding settings : cabac=1 / ref=5 / deblock=1:-3:-3 / analyse=0x3:0x133 / me=umh / subme=8 / psy=1 / psy_rd=1.00:0.00 / mixed_ref=1 / me_range=16 / chroma_me=1 / trellis=1 / 8x8dct=1 / cqm=0 / deadzone=21,11 / fast_pskip=0 / chroma_qp_offset=-2 / threads=25 / lookahead_threads=4 / sliced_threads=0 / nr=0 / decimate=1 / interlaced=0 / bluray_compat=0 / constrained_intra=0 / bframes=3 / b_pyramid=2 / b_adapt=1 / b_bias=0 / direct=3 / weightb=1 / open_gop=0 / weightp=2 / keyint=250 / keyint_min=23 / scenecut=40 / intra_refresh=0 / rc_lookahead=50 / rc=2pass / mbtree=1 / bitrate=9734 / ratetol=1.0 / qcomp=0.60 / qpmin=0 / qpmax=69 / qpstep=4 / cplxblur=20.0 / qblur=0.5 / vbv_maxrate=62500 / vbv_bufsize=78125 / nal_hrd=none / filler=0 / ip_ratio=1.40 / aq=1:1.00
Default : Yes
Forced : No

Audio
ID : 2
Format : DTS
Format/Info : Digital Theater Systems
Format profile : X / MA / Core
Codec ID : A_DTS
Duration : 1 h 37 min
Bit rate mode : Variable / Variable / Constant
Bit rate : 6 816 kb/s / 6 816 kb/s / 1 509 kb/s
Channel(s) : Object Based / 8 channels / 6 channels
Channel positions : Object Based / Front: L C R, Side: L R, Back: L R, LFE / Front: L C R, Side: L R, LFE
Sampling rate : / 48.0 kHz / 48.0 kHz
Frame rate : 93.750 FPS (512 SPF)
Bit depth : / 24 bits / 24 bits
Compression mode : / Lossless / Lossy
Stream size : 4.64 GiB (41%)
Title : The.First.Purge.2018.1080p.BluRay.x264.DTS-X.7.1-FGT
Language : English
Default : Yes
Forced : No

Text #1
ID : 3
Format : UTF-8
Codec ID : S_TEXT/UTF8
Codec ID/Info : UTF-8 Plain Text
Duration : 1 h 33 min
Bit rate : 68 b/s
Count of elements : 1497
Stream size : 46.7 KiB (0%)
Title : English-SRT
Language : English
Default : Yes
Forced : No

Text #2
ID : 4
Format : PGS
Muxing mode : zlib
Codec ID : S_HDMV/PGS
Codec ID/Info : Picture based subtitle format used on BDs/HD-DVDs
Duration : 1 h 33 min
Bit rate : 47.3 kb/s
Count of elements : 2994
Stream size : 31.5 MiB (0%)
Title : English-PGS
Language : English
Default : No
Forced : No

Text #3
ID : 5
Format : PGS
Muxing mode : zlib
Codec ID : S_HDMV/PGS
Codec ID/Info : Picture based subtitle format used on BDs/HD-DVDs
Duration : 1 h 36 min
Bit rate : 33.2 kb/s
Count of elements : 2327
Stream size : 22.9 MiB (0%)
Title : Spanish-PGS
Language : Spanish
Default : No
Forced : No

Text #4
ID : 6
Format : PGS
Muxing mode : zlib
Codec ID : S_HDMV/PGS
Codec ID/Info : Picture based subtitle format used on BDs/HD-DVDs
Duration : 1 h 36 min
Bit rate : 33.0 kb/s
Count of elements : 2476
Stream size : 22.7 MiB (0%)
Title : French-PGS
Language : French
Default : No
Forced : No

Menu
00:00:00.000 : en:Chapter 01
00:06:25.635 : en:Chapter 02
00:11:59.802 : en:Chapter 03
00:16:18.769 : en:Chapter 04
00:21:18.110 : en:Chapter 05
00:25:56.388 : en:Chapter 06
00:30:54.143 : en:Chapter 07
00:35:31.212 : en:Chapter 08
00:38:41.110 : en:Chapter 09
00:43:02.454 : en:Chapter 10
00:48:34.411 : en:Chapter 11
00:53:35.086 : en:Chapter 12
00:55:59.564 : en:Chapter 13
00:59:13.049 : en:Chapter 14
01:05:25.713 : en:Chapter 15
01:09:31.792 : en:Chapter 16
01:13:23.732 : en:Chapter 17
01:19:47.532 : en:Chapter 18
01:24:50.043 : en:Chapter 19
01:29:54.931 : en:Chapter 20






The.First.Purge.2018.1080p.BluRay.x264.DTS-X.7.1-FGT.torrent (56.95 KB)

分享到: 新浪微博新浪微博 QQ空间QQ空间 腾讯微博腾讯微博 腾讯朋友腾讯朋友

多谢超版分享

TOP

多谢超版分享

TOP

感谢版主分享
花落滿懷  暗香盈袖  淡淡歡喜淡淡愁

TOP

返回列表