返回列表 发帖

[1080P] 边境杀手2:边境战士/怒火边界2:毒刑者(台)/毒裁者2(港) Sicario.Day.of.the.Soldado.2018.1080p.BluRay.x264.DTS-HD.MA.7.1-FGT




◎译  名 边境杀手2:边境战士/边境杀手2:战士/边境杀手2:兵凶战危/边境杀手2:并肩作战/怒火边界2:毒刑者(台)/毒裁者2(港)
◎片  名 Sicario: Day of the Soldado
◎年  代 2018
◎国  家 美国/意大利
◎类  别 动作/犯罪/剧情
◎语  言 英语
◎字  幕 英文...
◎IMDb评分 7.3/10 from 25296 users
◎IMDB链接 https://www.imdb.com/title/tt5052474/
◎文件格式 x264 + DTS
◎视频尺寸 1920 x 800
◎文件大小 10.86 GB  
◎片  长 2 h 2 min
◎导  演 斯特法诺·索利马 Stefano Sollima
◎主  演 本尼西奥·德尔·托罗 Benicio del Toro
       乔什·布洛林 Josh Brolin
       伊莎贝拉·莫奈 Isabela Moner
       凯瑟琳·基纳 Catherine Keener
       杰弗里·多诺万 Jeffrey Donovan
       马修·莫迪恩 Matthew Modine



◎简  介


    本作将聚焦于本尼西奥·德尔·托罗饰演的亚历桑德罗的前世今生,他的家人当初如何被毒贩折磨,他又是如何变成心狠手辣的特工。当接到护送仇人女儿返回墨西哥的任务时,这位杀手特工将作出怎样的选择呢……
Video
ID : 1
Format : AVC
Format/Info : Advanced Video Codec
Format profile : High@L4.1
Format settings : CABAC / 5 Ref Frames
Format settings, CABAC : Yes
Format settings, ReFrames : 5 frames
Codec ID : V_MPEG4/ISO/AVC
Duration : 2 h 2 min
Bit rate : 9 996 kb/s
Width : 1 920 pixels
Height : 800 pixels
Display aspect ratio : 2.40:1
Frame rate mode : Constant
Frame rate : 23.976 (24000/1001) FPS
Color space : YUV
Chroma subsampling : 4:2:0
Bit depth : 8 bits
Scan type : Progressive
Bits/(Pixel*Frame) : 0.271
Stream size : 8.54 GiB (79%)
Title : Sicario.Day.Of.The.Soldado.2018.1080p.BluRay.x264.DTS-HD.MA.7.1-FGT
Writing library : x264 core 157 r2932 303c484
Encoding settings : cabac=1 / ref=5 / deblock=1:-3:-3 / analyse=0x3:0x113 / me=umh / subme=8 / psy=1 / psy_rd=1.00:0.00 / mixed_ref=1 / me_range=16 / chroma_me=1 / trellis=1 / 8x8dct=1 / cqm=0 / deadzone=21,11 / fast_pskip=1 / chroma_qp_offset=-2 / threads=24 / lookahead_threads=4 / sliced_threads=0 / nr=0 / decimate=1 / interlaced=0 / bluray_compat=0 / constrained_intra=0 / bframes=3 / b_pyramid=2 / b_adapt=1 / b_bias=0 / direct=3 / weightb=1 / open_gop=0 / weightp=2 / keyint=250 / keyint_min=23 / scenecut=40 / intra_refresh=0 / rc_lookahead=50 / rc=2pass / mbtree=1 / bitrate=9996 / ratetol=1.0 / qcomp=0.60 / qpmin=0 / qpmax=69 / qpstep=4 / cplxblur=20.0 / qblur=0.5 / ip_ratio=1.40 / aq=1:1.00
Language : English
Default : Yes
Forced : No

Audio
ID : 2
Format : DTS
Format/Info : Digital Theater Systems
Format profile : MA / Core
Codec ID : A_DTS
Duration : 2 h 2 min
Bit rate mode : Variable / Constant
Bit rate : 2 635 kb/s / 1 509 kb/s
Channel(s) : 8 channels / 6 channels
Channel positions : Front: L C R, Side: L R, Back: L R, LFE / Front: L C R, Side: L R, LFE
Sampling rate : 48.0 kHz
Frame rate : 93.750 FPS (512 SPF)
Bit depth : 16 bits
Compression mode : Lossless / Lossy
Stream size : 2.25 GiB (21%)
Title : Sicario.Day.Of.The.Soldado.2018.1080p.BluRay.x264.DTS-HD.MA.7.1-FGT
Language : English
Default : Yes
Forced : No

Text #1
ID : 3
Format : UTF-8
Codec ID : S_TEXT/UTF8
Codec ID/Info : UTF-8 Plain Text
Duration : 1 h 27 min
Bit rate : 6 b/s
Count of elements : 172
Stream size : 4.44 KiB (0%)
Title : English-FORCED-SRT
Language : English
Default : Yes
Forced : Yes

Text #2
ID : 4
Format : UTF-8
Codec ID : S_TEXT/UTF8
Codec ID/Info : UTF-8 Plain Text
Duration : 1 h 52 min
Bit rate : 36 b/s
Count of elements : 840
Stream size : 30.1 KiB (0%)
Title : English-SRT
Language : English
Default : No
Forced : No

Text #3
ID : 5
Format : PGS
Muxing mode : zlib
Codec ID : S_HDMV/PGS
Codec ID/Info : Picture based subtitle format used on BDs/HD-DVDs
Duration : 1 h 52 min
Bit rate : 20.3 kb/s
Count of elements : 1624
Stream size : 16.4 MiB (0%)
Title : English-PGS
Language : English
Default : No
Forced : No

Text #4
ID : 6
Format : PGS
Muxing mode : zlib
Codec ID : S_HDMV/PGS
Codec ID/Info : Picture based subtitle format used on BDs/HD-DVDs
Duration : 2 h 1 min
Bit rate : 24.1 kb/s
Count of elements : 2098
Stream size : 20.9 MiB (0%)
Title : English-SDH-PGS
Language : English
Default : No
Forced : No

Text #5
ID : 7
Format : PGS
Muxing mode : zlib
Codec ID : S_HDMV/PGS
Codec ID/Info : Picture based subtitle format used on BDs/HD-DVDs
Duration : 2 h 1 min
Bit rate : 24.1 kb/s
Count of elements : 2098
Stream size : 20.9 MiB (0%)
Title : English-PGS
Language : English
Default : No
Forced : No

Text #6
ID : 8
Format : PGS
Muxing mode : zlib
Codec ID : S_HDMV/PGS
Codec ID/Info : Picture based subtitle format used on BDs/HD-DVDs
Duration : 1 h 27 min
Bit rate : 1 980 b/s
Count of elements : 344
Stream size : 1.24 MiB (0%)
Title : English-SDH-PGS
Language : English
Default : No
Forced : No

Text #7
ID : 9
Format : PGS
Muxing mode : zlib
Codec ID : S_HDMV/PGS
Codec ID/Info : Picture based subtitle format used on BDs/HD-DVDs
Duration : 1 h 52 min
Bit rate : 20.3 kb/s
Count of elements : 1624
Stream size : 16.4 MiB (0%)
Title : English-FORCED-PGS
Language : English
Default : No
Forced : No

Text #8
ID : 10
Format : PGS
Muxing mode : zlib
Codec ID : S_HDMV/PGS
Codec ID/Info : Picture based subtitle format used on BDs/HD-DVDs
Duration : 2 h 1 min
Bit rate : 16.9 kb/s
Count of elements : 1588
Stream size : 14.7 MiB (0%)
Title : French-PGS
Language : French
Default : No
Forced : No

Text #9
ID : 11
Format : PGS
Muxing mode : zlib
Codec ID : S_HDMV/PGS
Codec ID/Info : Picture based subtitle format used on BDs/HD-DVDs
Duration : 2 h 1 min
Bit rate : 17.6 kb/s
Count of elements : 1648
Stream size : 15.3 MiB (0%)
Title : Portuguese-PGS
Language : Portuguese
Default : No
Forced : No

Text #10
ID : 12
Format : PGS
Muxing mode : zlib
Codec ID : S_HDMV/PGS
Codec ID/Info : Picture based subtitle format used on BDs/HD-DVDs
Duration : 2 h 1 min
Bit rate : 12.8 kb/s
Count of elements : 1336
Stream size : 11.1 MiB (0%)
Title : Spanish-PGS
Language : Spanish
Default : No
Forced : No

Text #11
ID : 13
Format : PGS
Muxing mode : zlib
Codec ID : S_HDMV/PGS
Codec ID/Info : Picture based subtitle format used on BDs/HD-DVDs
Duration : 2 h 1 min
Bit rate : 586 b/s
Count of elements : 60
Stream size : 521 KiB (0%)
Title : Spanish-PGS
Language : Spanish
Default : No
Forced : No

Menu
00:00:00.000 : en:Chapter 01
00:06:37.939 : en:Chapter 02
00:14:45.551 : en:Chapter 03
00:18:48.377 : en:Chapter 04
00:27:08.168 : en:Chapter 05
00:34:08.963 : en:Chapter 06
00:42:28.337 : en:Chapter 07
00:51:10.108 : en:Chapter 08
01:00:58.071 : en:Chapter 09
01:09:20.114 : en:Chapter 10
01:14:26.795 : en:Chapter 11
01:23:24.958 : en:Chapter 12
01:28:41.357 : en:Chapter 13
01:35:38.607 : en:Chapter 14
01:41:44.181 : en:Chapter 15
01:46:15.160 : en:Chapter 16





分享到: 新浪微博新浪微博 QQ空间QQ空间 腾讯微博腾讯微博 腾讯朋友腾讯朋友

多谢超版分享

TOP

感谢牡丹分享

TOP

多谢超版分享

TOP

感谢版主分享
花落滿懷  暗香盈袖  淡淡歡喜淡淡愁

TOP

非常感谢楼主一如既往地分享如此优秀精彩的电影!

TOP

返回列表