返回列表 发帖

[1080P] 犬猿 Thicker.than.Water.2018.JAPANESE.1080p.BluRay.x264-WiKi



◎译  名 犬猿
◎片  名 Kenen / Thicker Than Water
◎年  代 2018
◎国  家 日本
◎类  别 剧情/喜剧
◎语  言 日语
◎字  幕 中文
◎IMDb评分  6.6/10 from 21 users
◎IMDB链接 http://www.imdb.com/title/tt7222290
◎片  长 1 h 43 min
◎导  演 吉田恵辅 Keisuke Yoshida
◎主  演 洼田正孝 Masataka Kubota
      新井浩文 Hirofumi Arai
      江上敬子 Keiko Enoue
      笕美和子 Miwako Kakei

◎简  介

  影片描绘了刚刚出狱的麻烦制造者哥哥与个性温柔的上班族弟弟,工作能力强却心胸狭窄的姐姐与稍显天然,冒失没经验的妹妹之间发生的情感故事。
Video
ID : 1
Format : AVC
Format/Info : Advanced Video Codec
Format profile : High@L4.1
Format settings : CABAC / 4 Ref Frames
Format settings, CABAC : Yes
Format settings, ReFrames : 4 frames
Codec ID : V_MPEG4/ISO/AVC
Duration : 1 h 43 min
Bit rate : 11.0 Mb/s
Width : 1 920 pixels
Height : 1 038 pixels
Display aspect ratio : 1.85:1
Frame rate mode : Constant
Frame rate : 23.976 (24000/1001) FPS
Color space : YUV
Chroma subsampling : 4:2:0
Bit depth : 8 bits
Scan type : Progressive
Bits/(Pixel*Frame) : 0.230
Stream size : 7.92 GiB (94%)
Writing library : x264 core 129 r2245+704+36 8e61944 tMod+MixAQ [8-bit@4:2:0 X86_64]
Encoding settings : cabac=1 / ref=4 / deblock=1:-3:-3 / analyse=0x3:0x133 / me=umh / subme=11 / psy=1 / fade_compensate=0.00 / psy_rd=1.05:0.10 / mixed_ref=1 / me_range=64 / chroma_me=1 / trellis=2 / 8x8dct=1 / cqm=0 / deadzone=21,11 / fast_pskip=0 / chroma_qp_offset=-3 / threads=18 / lookahead_threads=3 / sliced_threads=0 / nr=0 / decimate=0 / interlaced=0 / bluray_compat=0 / constrained_intra=0 / fgo=0 / bframes=10 / b_pyramid=2 / b_adapt=2 / b_bias=0 / direct=3 / weightb=1 / open_gop=0 / weightp=2 / keyint=250 / keyint_min=23 / scenecut=40 / intra_refresh=0 / rc=2pass / mbtree=0 / bitrate=11006 / ratetol=1.0 / qcomp=0.70 / qpmin=0 / qpmax=69 / qpstep=4 / cplxblur=20.0 / qblur=0.5 / ip_ratio=1.40 / pb_ratio=1.30 / aq=1 / aq-strength=0.90 / aq-sensitivity=10.00 / aq-ifactor=1.00 / aq-pfactor=1.00 / aq-bfactor=1.00 / aq2=0
Language : Japanese
Default : Yes
Forced : No

Audio
ID : 2
Format : AC-3
Format/Info : Audio Coding 3
Commercial name : Dolby Digital
Codec ID : A_AC3
Duration : 1 h 43 min
Bit rate mode : Constant
Bit rate : 640 kb/s
Channel(s) : 6 channels
Channel layout : L R C LFE Ls Rs
Sampling rate : 48.0 kHz
Frame rate : 31.250 FPS (1536 SPF)
Bit depth : 16 bits
Compression mode : Lossy
Stream size : 472 MiB (5%)
Language : Japanese
Service kind : Complete Main
Default : Yes
Forced : No

Text
ID : 3
Format : ASS
Codec ID : S_TEXT/ASS
Codec ID/Info : Advanced Sub Station Alpha
Duration : 1 h 39 min
Bit rate : 109 b/s
Count of elements : 1537
Compression mode : Lossless
Stream size : 79.3 KiB (0%)
Language : Chinese
Default : Yes
Forced : No

Menu
00:00:00.000 : en:00:00:00.000
00:05:51.976 : en:00:05:51.976
00:13:24.595 : en:00:13:24.595
00:19:46.435 : en:00:19:46.435
00:25:34.533 : en:00:25:34.533
00:34:02.331 : en:00:34:02.331
00:37:54.272 : en:00:37:54.272
00:44:03.349 : en:00:44:03.349
00:50:05.711 : en:00:50:05.711
00:54:39.484 : en:00:54:39.484
00:59:39.450 : en:00:59:39.450
01:02:23.322 : en:01:02:23.322
01:08:46.831 : en:01:08:46.831
01:31:10.381 : en:01:31:10.381
01:35:19.338 : en:01:35:19.338
01:39:29.171 : en:01:39:29.171






Thicker.than.Water.2018.JAPANESE.1080p.BluRay.x264-WiKi.torrent (84.44 KB)

分享到: 新浪微博新浪微博 QQ空间QQ空间 腾讯微博腾讯微博 腾讯朋友腾讯朋友

感谢版主分享
花落滿懷  暗香盈袖  淡淡歡喜淡淡愁

TOP

多谢超版分享

TOP

多谢超版分享

TOP

感谢版主分享

TOP

多谢超版分享

TOP

返回列表