返回列表 发帖

[1080P] 坂道上的阿波罗 Kids.on.the.Slope.2018.JAPANESE.1080p.BluRay.x264.DTS-WiK




◎译  名 坂道上的阿波罗
◎片  名 坂道のアポロン/ Sakamichi no Apollon / Kids on the Slope
◎年  代 2018
◎国  家 日本
◎类  别 剧情
◎语  言 日语
◎字  幕 中文
◎IMDb评分 7.4/10 from 139 users
◎IMDB链接 http://www.imdb.com/title/tt6835804
◎片  长 1 h 59 min
◎导  演 三木孝浩 Takahiro Miki
◎主  演 知念侑李 Yuri Chinen
      中川大志 Taishi Nakagawa
      小松菜奈 Nana Komatsu
      藤冈靛 Tatsuo Dean Fujioka
      中村梅雀 Baijaku Nakamura
      真野惠里菜 Erina Mano
      山下容莉枝 Yorie Yamashita
      松村北斗 Hokuto Matsumura
      野间口彻 Tôru Nomaguchi

◎简  介

  男主角西见薰,因为父亲工作的关系,自少便需要不断转校。在1966年的初夏,这次薰由城巿的横须贺转学至乡下的长崎県。由于从小学开始便不停地转学,所以开始在适应新环境当中感到压力,现今会因为只要有一点压力便会变得想呕吐了。但在新学校里,薰却遇上了同班的追高清不良少年川渕千太郎,并与他的青梅竹马迎律子、以及学姐深堀百合香四人便展开了以朋友、恋爱,以及爵士乐的春青成长故事。
Video
ID : 1
Format : AVC
Format/Info : Advanced Video Codec
Format profile : High@L4.1
Format settings : CABAC / 5 Ref Frames
Format settings, CABAC : Yes
Format settings, ReFrames : 5 frames
Codec ID : V_MPEG4/ISO/AVC
Duration : 1 h 59 min
Bit rate : 10.1 Mb/s
Width : 1 920 pixels
Height : 802 pixels
Display aspect ratio : 2.40:1
Frame rate mode : Constant
Frame rate : 23.976 (24000/1001) FPS
Color space : YUV
Chroma subsampling : 4:2:0
Bit depth : 8 bits
Scan type : Progressive
Bits/(Pixel*Frame) : 0.275
Stream size : 8.48 GiB (87%)
Writing library : x264 core 129 r2245+704+36 8e61944 tMod+MixAQ [8-bit@4:2:0 X86_64]
Encoding settings : cabac=1 / ref=5 / deblock=1:-3:-3 / analyse=0x3:0x133 / me=umh / subme=11 / psy=1 / fade_compensate=0.00 / psy_rd=1.05:0.10 / mixed_ref=1 / me_range=64 / chroma_me=1 / trellis=2 / 8x8dct=1 / cqm=0 / deadzone=21,11 / fast_pskip=0 / chroma_qp_offset=-3 / threads=18 / lookahead_threads=3 / sliced_threads=0 / nr=0 / decimate=0 / interlaced=0 / bluray_compat=0 / constrained_intra=0 / fgo=0 / bframes=10 / b_pyramid=2 / b_adapt=2 / b_bias=0 / direct=3 / weightb=1 / open_gop=0 / weightp=2 / keyint=250 / keyint_min=23 / scenecut=40 / intra_refresh=0 / rc=2pass / mbtree=0 / bitrate=10138 / ratetol=1.0 / qcomp=0.70 / qpmin=0 / qpmax=69 / qpstep=4 / cplxblur=20.0 / qblur=0.5 / ip_ratio=1.40 / pb_ratio=1.30 / aq=1 / aq-strength=0.90 / aq-sensitivity=10.00 / aq-ifactor=1.00 / aq-pfactor=1.00 / aq-bfactor=1.00 / aq2=0
Language : Japanese
Default : Yes
Forced : No

Audio
ID : 2
Format : DTS
Format/Info : Digital Theater Systems
Codec ID : A_DTS
Duration : 1 h 59 min
Bit rate mode : Constant
Bit rate : 1 509 kb/s
Channel(s) : 6 channels
Channel layout : C L R Ls Rs LFE
Sampling rate : 48.0 kHz
Frame rate : 93.750 FPS (512 SPF)
Bit depth : 24 bits
Compression mode : Lossy
Stream size : 1.26 GiB (13%)
Language : Japanese
Default : Yes
Forced : No

Text
ID : 3
Format : ASS
Codec ID : S_TEXT/ASS
Codec ID/Info : Advanced Sub Station Alpha
Duration : 1 h 54 min
Bit rate : 63 b/s
Count of elements : 1041
Compression mode : Lossless
Stream size : 53.2 KiB (0%)
Language : Chinese
Default : Yes
Forced : No

Menu
00:00:00.000 : en:00:00:00.000
00:11:05.748 : en:00:11:05.748
00:21:09.810 : en:00:21:09.810
00:28:20.490 : en:00:28:20.490
00:35:07.772 : en:00:35:07.772
00:45:24.346 : en:00:45:24.346
00:55:15.312 : en:00:55:15.312
01:04:23.359 : en:01:04:23.359
01:08:52.169 : en:01:08:52.169
01:20:45.048 : en:01:20:45.048
01:32:13.152 : en:01:32:13.152
01:41:46.475 : en:01:41:46.475
01:50:58.568 : en:01:50:58.568
01:55:46.439 : en:01:55:46.439
01:59:46.179 : en:01:59:46.179




Kids.on.the.Slope.2018.JAPANESE.1080p.BluRay.x264.DTS-WiKi.torrent (98.1 KB)

分享到: 新浪微博新浪微博 QQ空间QQ空间 腾讯微博腾讯微博 腾讯朋友腾讯朋友

感谢版主分享
花落滿懷  暗香盈袖  淡淡歡喜淡淡愁

TOP

多谢超版分享

TOP

多谢超版分享

TOP

返回列表