返回列表 发帖

[720P] 世界之间 Between.Worlds.2018.720p.BluRay.x264.DTS-FGT




◎译  名 世界之间
◎片  名 Between Worlds
◎年  代 2018
◎国  家 西班牙
◎类  别 动作/悬疑/惊悚
◎语  言 英语
◎IMDb评分  7.2/10 from 51 users
◎IMDB链接 https://www.imdb.com/title/tt7295450/
◎片  长 1 h 30 min
◎导  演 Maria Pulera
◎主  演 尼古拉斯·凯奇 Nicolas Cage
      弗朗卡·波滕特 Franka Potente
      佩内洛普·米契尔 Penelope Mitchell
      加勒特·克莱顿 Garrett Clayton
      莉蒂亚·赫斯特 Lydia Hearst

◎简  介

  影片讲述凯奇扮演的卡车司机,因妻儿去世整日遭受折磨。一位灵媒为了找到自己昏迷女儿的灵魂而找上他...。

Video
ID : 1
Format : AVC
Format/Info : Advanced Video Codec
Format profile : High@L4.1
Format settings : CABAC / 4 Ref Frames
Format settings, CABAC : Yes
Format settings, ReFrames : 4 frames
Codec ID : V_MPEG4/ISO/AVC
Duration : 1 h 30 min
Bit rate : 5 500 kb/s
Width : 1 280 pixels
Height : 690 pixels
Display aspect ratio : 1.85:1
Original display aspect ratio : 1.85:1
Frame rate mode : Constant
Frame rate : 23.976 (24000/1001) FPS
Color space : YUV
Chroma subsampling : 4:2:0
Bit depth : 8 bits
Scan type : Progressive
Bits/(Pixel*Frame) : 0.260
Stream size : 3.47 GiB (78%)
Title : Between.Worlds.2018.720p.BluRay.x264.DTS-FGT
Writing library : x264 core 148 r2795M aaa9aa8
Encoding settings : cabac=1 / ref=4 / deblock=1:-2:-2 / analyse=0x3:0x113 / me=umh / subme=9 / psy=1 / psy_rd=1.00:0.15 / mixed_ref=1 / me_range=16 / chroma_me=1 / trellis=2 / 8x8dct=1 / cqm=0 / deadzone=21,11 / fast_pskip=1 / chroma_qp_offset=-3 / threads=24 / lookahead_threads=3 / sliced_threads=0 / nr=0 / decimate=1 / interlaced=0 / bluray_compat=0 / constrained_intra=0 / bframes=3 / b_pyramid=2 / b_adapt=1 / b_bias=0 / direct=3 / weightb=1 / open_gop=0 / weightp=2 / keyint=250 / keyint_min=25 / scenecut=40 / intra_refresh=0 / rc_lookahead=50 / rc=2pass / mbtree=1 / bitrate=5500 / ratetol=1.0 / qcomp=0.60 / qpmin=0 / qpmax=69 / qpstep=4 / cplxblur=20.0 / qblur=0.5 / vbv_maxrate=31250 / vbv_bufsize=31250 / nal_hrd=none / filler=0 / ip_ratio=1.40 / aq=1:1.00
Language : English
Default : Yes
Forced : No

Audio
ID : 2
Format : DTS
Format/Info : Digital Theater Systems
Codec ID : A_DTS
Duration : 1 h 30 min
Bit rate mode : Constant
Bit rate : 1 509 kb/s
Channel(s) : 6 channels
Channel layout : C L R Ls Rs LFE
Sampling rate : 48.0 kHz
Frame rate : 93.750 FPS (512 SPF)
Bit depth : 16 bits
Compression mode : Lossy
Stream size : 975 MiB (22%)
Title : Between.Worlds.2018.720p.BluRay.x264.DTS-FGT
Default : Yes
Forced : No

Text
ID : 3
Format : UTF-8
Codec ID : S_TEXT/UTF8
Codec ID/Info : UTF-8 Plain Text
Duration : 1 h 19 min
Bit rate : 53 b/s
Count of elements : 1138
Stream size : 31.4 KiB (0%)
Language : English
Default : Yes
Forced : No

Menu
00:00:00.000 : en:Chapter 1
00:05:35.043 : en:Chapter 2
00:14:21.402 : en:Chapter 3
00:21:00.342 : en:Chapter 4
00:28:21.116 : en:Chapter 5
00:37:01.845 : en:Chapter 6
00:45:21.218 : en:Chapter 7
00:54:06.493 : en:Chapter 8
01:00:20.283 : en:Chapter 9
01:06:12.468 : en:Chapter 10
01:12:46.153 : en:Chapter 11
01:22:57.306 : en:Chapter 12





分享到: 新浪微博新浪微博 QQ空间QQ空间 腾讯微博腾讯微博 腾讯朋友腾讯朋友

多谢超版分享

TOP

吼吼吼,好东东,谢超版分享!!!
天天游戏,时时在线。

TOP

不错啊。。。

TOP

尼古拉斯凯奇……

TOP

貌似没有下载链接!!

TOP

返回列表