返回列表 发帖
酷屏

[HDRIP] 忠烈杨家将 Saving.General.Yang.2013.KOR.HDRip.H264-Canrel




◎译  名 忠烈杨家将/一门忠烈杨家将/ 杨家将
◎片  名 Saving General Yang
◎年  代 2013
◎国  家 中国/中国香港
◎类  别 战争/古装
◎语  言 普通话
◎字  幕 韩文(内嵌)
◎IMDB评分  5.6/10 from 127 users
◎IMDB链接  http://www.imdb.com/title/tt2072220
◎文件格式 H264 + AAC
◎视频尺寸 720 x 406
◎文件大小 1CD 1.56G
◎片  长 101 Mins
◎导  演 于仁泰 Ronny Yu
◎主  演 郑伊健 Ekin Cheng  ....杨大郎
      林峰 Raymond Lam  ....杨五郎
      郑少秋 Adam Cheng  ....杨业
      吴尊 Chun Wu  ....杨六郎(延昭)
      李晨 Chen Li  ....杨四郎
      付辛博 xinbo Fu  ....杨七郎(延嗣)
      于波 Bo Yu  ....杨二郎
      周渝民 Vic Zhou  ....杨三郎
      徐帆 Fan Xu  ....佘赛花
      梁家仁 Ka-Yan Leung  ....潘仁美
      邵兵 Bing Shao  ....耶律原
      安以轩 Ady Ang  ....柴郡主




◎简        介



    北宋年间,辽国兵马在耶律原(邵兵 饰)的率领下大举入侵中原,当今圣上着杨业(郑少秋 饰)和潘仁美(梁家仁 饰)两位重臣出兵抗辽。谁知潘仁美公报私仇,于金沙滩一役临阵撤兵,致令杨业陷入重围,困于两狼山城。杨家有子七人,依次为:延平(郑伊健 饰)、延定(于波 饰)、延光(周渝民 饰)、延辉(李晨 饰)、延德(林峰 饰)、延昭(吴尊 饰)和延嗣(付辛博 饰)。虽然前路凶多吉少,但为了营救父亲杨家七人依旧冒险出征。然而此一战凶险非常,一方面耶律原势要报当年杀父之仇,屠尽杨家父子;另一方面潘仁美作壁上观,意欲置杨家于死地而后快。

  杨继业和儿子六郎、七郎被困两狼山。潘仁美公报私仇,不发援兵,并乱箭射死突围求援的七郎。老令公寡不敌众,头撞李陵碑殉国。金沙滩交恶之战,杨家将奋勇血战,折戟沉沙。唯剩六郎突围,险遭潘仁美毒手,回京师东京汴梁告御状……

  苍凉两狼山,一曲忠义悲歌流传千古……




Format : MPEG-4
Codec ID : M4V
File size : 1.56 GiB
Duration : 1h 41mn
Overall bit rate mode : Variable
Overall bit rate : 2 187 Kbps
Encoded date : UTC 2013-04-24 08:00:19
Tagged date : UTC 2013-04-24 08:00:48
㏕IM : 00;00;00;00
㏕SC : 30000
㏕SZ : 1001
Video #1
ID : 1
Format : AVC
Format/Info : Advanced Video Codec
Format profile : Baseline@L3.0
Format settings, CABAC : No
Format settings, ReFrames : 2 frames
Codec ID : avc1
Codec ID/Info : Advanced Video Coding
Duration : 1h 41mn
Source duration : 1h 41mn
Bit rate mode : Variable
Bit rate : 1 995 Kbps
Width : 720 pixels
Height : 406 pixels
Display aspect ratio : 16:9
Frame rate mode : Variable
Frame rate : 29.970 fps
Minimum frame rate : 29.970 fps
Maximum frame rate : 30.000 fps
Standard : NTSC
Color space : YUV
Chroma subsampling : 4:2:0
Bit depth : 8 bits
Scan type : Progressive
Bits/(Pixel*Frame) : 0.228
Stream size : 1.42 GiB (91%)
Source stream size : 1.42 GiB (91%)
Language : English
Encoded date : UTC 2013-04-24 08:00:19
Tagged date : UTC 2013-04-24 08:00:19
mdhd_Duration : 6111506
Audio #2
ID : 2
Format : AAC
Format/Info : Advanced Audio Codec
Format profile : LC
Codec ID : 40
Duration : 1h 41mn
Source duration : 1h 41mn
Bit rate mode : Variable
Bit rate : 192 Kbps
Maximum bit rate : 288 Kbps
Channel(s) : 2 channels
Channel positions : Front: L R
Sampling rate : 44.1 KHz
Compression mode : Lossy
Stream size : 138 MiB (9%)
Source stream size : 138 MiB (9%)
Language : English
Encoded date : UTC 2013-04-24 08:00:19
Tagged date : UTC 2013-04-24 08:00:19
mdhd_Duration : 6111562






saving.general.yang.2013.kor.hdrip.h264-canrel.torrent (16.17 KB)

分享到: 新浪微博新浪微博 QQ空间QQ空间 腾讯微博腾讯微博 腾讯朋友腾讯朋友

多谢超版的分享

TOP

看看这部杨家将拍的咋样

TOP

韩文版?感谢分享资源棒子也会看这类片吗

TOP

没有中文的吗?

TOP

期待高清的出来!

TOP

^_^ 支持牡丹发帖!

TOP

期待已久了

TOP

返回列表